<?xml version="1.0" standalone="no"?>
<!DOCTYPE svg PUBLIC "-//W3C//DTD SVG 1.1//EN" "http://www.w3.org/Graphics/SVG/1.1/DTD/svg11.dtd" >
<svg xmlns="http://www.w3.org/2000/svg">
  <metadata>Created by iconfont</metadata>
  <defs>
  <font id="iconfont" horiz-adv-x="1024">
    <font-face
      font-family="iconfont"
      font-weight="400"
      font-stretch="normal"
      units-per-em="1024"
      ascent="896"
      descent="-128"
    />
      <missing-glyph />
      
      <glyph glyph-name="talk_1" unicode="&#58999;" d="M515.072 885.0944a178.3808 178.3808 0 0 0 178.176-178.2272v-366.2336a178.2272 178.2272 0 0 0-356.4032 0V706.8672A178.3808 178.3808 0 0 0 515.072 885.0944z m0-671.4368a127.1296 127.1296 0 0 1 127.0272 127.0272V706.8672a127.0272 127.0272 0 0 1-254.0032 0v-366.2336a127.1296 127.1296 0 0 1 126.976-126.976zM512-117.09439999999995a25.6 25.6 0 0 0-25.6 25.6v141.7728a25.6 25.6 0 0 0 51.2 0v-141.7728a25.6 25.6 0 0 0-25.6-25.6zM512 24.67840000000001a380.416 380.416 0 0 0-380.0064 380.0064 25.6 25.6 0 1 0 51.2 0 328.8064 328.8064 0 0 1 657.5616 0 25.6 25.6 0 0 0 51.2 0A380.416 380.416 0 0 0 512 24.67840000000001z"  horiz-adv-x="1024" />
      
      <glyph glyph-name="icon_yuyinguanbi" unicode="&#59000;" d="M515.072 885.0944a178.3808 178.3808 0 0 0 178.176-178.2272v-366.2336a178.2272 178.2272 0 0 0-356.4032 0V706.8672A178.3808 178.3808 0 0 0 515.072 885.0944z m0-671.4368a127.1296 127.1296 0 0 1 127.0272 127.0272V706.8672a127.0272 127.0272 0 0 1-254.0032 0v-366.2336a127.1296 127.1296 0 0 1 126.976-126.976zM512 24.6784a380.416 380.416 0 0 0-380.0064 380.0064 25.6 25.6 0 0 0 51.2 0A329.1648 329.1648 0 0 1 512 75.8784a349.44 349.44 0 0 1 126.8736 25.344 25.6 25.6 0 1 0 17.7664-48.0256 397.4144 397.4144 0 0 0-144.64-28.5184zM512-117.0944a25.6 25.6 0 0 0-25.6 25.6v141.7728a25.6 25.6 0 0 0 51.2 0v-141.7728a25.6 25.6 0 0 0-25.6-25.6zM818.7904 201.6256a25.6 25.6 0 0 0-21.4528 39.5776 316.5184 316.5184 0 0 1 43.4176 163.4816 25.6 25.6 0 0 0 51.2 0 364.8512 364.8512 0 0 0-51.712-191.3856 25.6 25.6 0 0 0-21.4528-11.6736zM939.008-68.608a25.6 25.6 0 0 0-18.1248 7.4752L66.8672 792.8832a25.6 25.6 0 0 0 36.1984 36.1984l854.016-854.016a25.6 25.6 0 0 0-18.1248-43.7248z"  horiz-adv-x="1024" />
      
      <glyph glyph-name="talk" unicode="&#59005;" d="M515.072 885.0944a178.3808 178.3808 0 0 0 178.176-178.2272v-366.2336a178.2272 178.2272 0 0 0-356.4032 0V706.8672A178.3808 178.3808 0 0 0 515.072 885.0944z m0-671.4368a127.1296 127.1296 0 0 1 127.0272 127.0272V706.8672a127.0272 127.0272 0 0 1-254.0032 0v-366.2336a127.1296 127.1296 0 0 1 126.976-126.976zM512 24.67840000000001a380.416 380.416 0 0 0-380.0064 380.0064 25.6 25.6 0 0 0 51.2 0A329.1648 329.1648 0 0 1 512 75.87840000000006a349.44 349.44 0 0 1 126.8736 25.344 25.6 25.6 0 1 0 17.7664-48.0256 397.4144 397.4144 0 0 0-144.64-28.5184zM512-117.09439999999995a25.6 25.6 0 0 0-25.6 25.6v141.7728a25.6 25.6 0 0 0 51.2 0v-141.7728a25.6 25.6 0 0 0-25.6-25.6zM818.7904 201.62559999999996a25.6 25.6 0 0 0-21.4528 39.5776 316.5184 316.5184 0 0 1 43.4176 163.4816 25.6 25.6 0 0 0 51.2 0 364.8512 364.8512 0 0 0-51.712-191.3856 25.6 25.6 0 0 0-21.4528-11.6736zM939.008-68.60799999999995a25.6 25.6 0 0 0-18.1248 7.4752L66.8672 792.8832a25.6 25.6 0 0 0 36.1984 36.1984l854.016-854.016a25.6 25.6 0 0 0-18.1248-43.7248z"  horiz-adv-x="1024" />
      
      <glyph glyph-name="icon_shouqi" unicode="&#58997;" d="M716.8 376.456533a34.133333 34.133333 0 0 0-10.001067-24.132266l-336.349866-336.349867a34.133333 34.133333 0 0 0-48.264534 0 34.133333 34.133333 0 0 0 0 48.264533l312.183467 312.2176-329.0112 329.045334a34.133333 34.133333 0 0 0 0 48.264533 34.133333 34.133333 0 0 0 48.264533 0l353.1776-353.1776a34.133333 34.133333 0 0 0 10.001067-24.132267z"  horiz-adv-x="1024" />
      
      <glyph glyph-name="icon_zhankai" unicode="&#58998;" d="M295.355733 376.4224a34.133333 34.133333 0 0 0 10.001067 24.132267L658.5344 753.732267a34.133333 34.133333 0 0 0 48.264533 0 34.133333 34.133333 0 0 0 0-48.264534l-329.0112-329.045333 312.183467-312.2176a34.133333 34.133333 0 0 0-48.264533-48.264533l-336.349867 336.349866a34.133333 34.133333 0 0 0-10.001067 24.132267z"  horiz-adv-x="1024" />
      
      <glyph glyph-name="Icon_YunLuXiang" unicode="&#58995;" d="M307.264 20.096a239.488 239.488 0 0 0-55.552 472.384 32 32 0 0 0 14.784-62.272 175.488 175.488 0 1 1 88.704-339.52 32 32 0 1 0 17.472-61.568 239.808 239.808 0 0 0-65.408-9.024zM716.672 20.096a239.808 239.808 0 0 0-65.408 9.024 32 32 0 1 0 17.472 61.568 175.488 175.488 0 1 1 88.704 339.52 32 32 0 0 0 14.784 62.272 239.488 239.488 0 0 0-55.552-472.384zM763.712 434.944a32 32 0 0 0-32 32 216.96 216.96 0 0 1-433.856 0 32 32 0 1 0-64 0 280.96 280.96 0 0 0 561.856 0 32 32 0 0 0-32-32zM662.72 269.056a32 32 0 0 0-22.528 9.28L514.88 402.624l-121.6-121.6a32 32 0 0 0-45.312 45.184l143.872 144.32a32 32 0 0 0 45.184 0l147.968-146.816a32 32 0 0 0-22.528-54.72zM514.752 61.568a32 32 0 0 0-32 32V374.4a32 32 0 0 0 64 0v-280.832a32 32 0 0 0-32-32z"  horiz-adv-x="1024" />
      
      <glyph glyph-name="Icon_BenDiLuXiang" unicode="&#58996;" d="M298.688 842.688h554.688a32 32 0 0 0 32-32v-853.312a32 32 0 0 0-32-32H170.688a32 32 0 0 0-32 32V640a32 32 0 0 0 6.4 19.2l128 170.688a32 32 0 0 0 25.6 12.8z m522.688-64H314.688l-112-149.312v-640h618.688zM320 416a32 32 0 0 0-32 32V576a32 32 0 0 0 64 0v-128a32 32 0 0 0-32-32zM448 480a32 32 0 0 0-32 32V640a32 32 0 0 0 64 0v-128a32 32 0 0 0-32-32zM704 480a32 32 0 0 0-32 32V640a32 32 0 0 0 64 0v-128a32 32 0 0 0-32-32zM576 480a32 32 0 0 0-32 32V640a32 32 0 0 0 64 0v-128a32 32 0 0 0-32-32z"  horiz-adv-x="1024" />
      
      <glyph glyph-name="voice_1" unicode="&#59004;" d="M494.7456 819.2a25.6 25.6 0 0 0 25.6-25.6v-798.3616a25.6 25.6 0 0 0-25.6-25.6 302.4896 302.4896 0 0 0-212.0704 109.568A628.0704 628.0704 0 0 0 209.92 172.79999999999995H95.5392A70.0416 70.0416 0 0 0 25.6 242.73919999999998v306.688A70.0416 70.0416 0 0 0 95.5392 619.52H209.92c29.6448 46.08 139.008 199.68 284.8256 199.68z m-25.6-796.2624V765.9008c-126.0544-20.48-221.7984-183.1936-222.8224-184.9856a25.6 25.6 0 0 0-22.1696-12.8H95.5392a18.7904 18.7904 0 0 1-18.7392-18.7392v-306.688a18.7904 18.7904 0 0 1 18.7392-18.7392h128.6144a25.6 25.6 0 0 0 22.272-12.9536c0.9728-1.7408 96.6144-167.3216 222.72-188.0576zM929.0752 213.86239999999998a25.6 25.6 0 0 0-18.0736 7.4752l-289.0752 289.0752a25.6 25.6 0 0 0 36.1984 36.1984L947.2 257.53599999999994a25.6 25.6 0 0 0-18.1248-43.7248zM640 213.86239999999998a25.6 25.6 0 0 0-18.1248 43.7248l289.0752 289.0752a25.6 25.6 0 1 0 36.1984-36.1984l-289.024-289.1264a25.6 25.6 0 0 0-18.1248-7.4752z"  horiz-adv-x="1024" />
      
      <glyph glyph-name="Icon_JingYin" unicode="&#58994;" d="M494.7456 819.2a25.6 25.6 0 0 0 25.6-25.6v-798.3616a25.6 25.6 0 0 0-25.6-25.6 302.4896 302.4896 0 0 0-212.0704 109.568A628.0704 628.0704 0 0 0 209.92 172.8H95.5392A70.0416 70.0416 0 0 0 25.6 242.7392v306.688A70.0416 70.0416 0 0 0 95.5392 619.52H209.92c29.6448 46.08 139.008 199.68 284.8256 199.68z m-25.6-796.2624V765.9008c-126.0544-20.48-221.7984-183.1936-222.8224-184.9856a25.6 25.6 0 0 0-22.1696-12.8H95.5392a18.7904 18.7904 0 0 1-18.7392-18.7392v-306.688a18.7904 18.7904 0 0 1 18.7392-18.7392h128.6144a25.6 25.6 0 0 0 22.272-12.9536c0.9728-1.7408 96.6144-167.3216 222.72-188.0576zM929.0752 213.8624a25.6 25.6 0 0 0-18.0736 7.4752l-289.0752 289.0752a25.6 25.6 0 0 0 36.1984 36.1984L947.2 257.536a25.6 25.6 0 0 0-18.1248-43.7248zM640 213.8624a25.6 25.6 0 0 0-18.1248 43.7248l289.0752 289.0752a25.6 25.6 0 1 0 36.1984-36.1984l-289.024-289.1264a25.6 25.6 0 0 0-18.1248-7.4752z"  horiz-adv-x="1024" />
      
      <glyph glyph-name="fullPage" unicode="&#59006;" d="M501.76 0H163.84a87.04 87.04 0 0 0-87.04 87.04V424.96a25.6 25.6 0 0 0 25.6 25.6 25.6 25.6 0 0 0 25.6-25.6v-337.92a35.84 35.84 0 0 1 35.84-35.84h337.92a25.6 25.6 0 0 0 0-51.2zM911.36 317.44000000000005a25.6 25.6 0 0 0-25.6 25.6V680.96a35.84 35.84 0 0 1-35.84 35.84H512a25.6 25.6 0 0 0-25.6 25.6 25.6 25.6 0 0 0 25.6 25.6h337.92a87.04 87.04 0 0 0 87.04-87.04v-337.92a25.6 25.6 0 0 0-25.6-25.6z"  horiz-adv-x="1024" />
      
      <glyph glyph-name="Icon_QuanPing" unicode="&#58993;" d="M501.76 0H163.84a87.04 87.04 0 0 0-87.04 87.04V424.96a25.6 25.6 0 0 0 25.6 25.6 25.6 25.6 0 0 0 25.6-25.6v-337.92a35.84 35.84 0 0 1 35.84-35.84h337.92a25.6 25.6 0 0 0 0-51.2zM911.36 317.44a25.6 25.6 0 0 0-25.6 25.6V680.96a35.84 35.84 0 0 1-35.84 35.84H512a25.6 25.6 0 0 0-25.6 25.6 25.6 25.6 0 0 0 25.6 25.6h337.92a87.04 87.04 0 0 0 87.04-87.04v-337.92a25.6 25.6 0 0 0-25.6-25.6z"  horiz-adv-x="1024" />
      
      <glyph glyph-name="clarity_1" unicode="&#59010;" d="M258.6624 239.25760000000002a104.5504 104.5504 0 0 0-42.0864 85.504h49.8176a72.2432 72.2432 0 0 1 24.9344-49.8688 96.1024 96.1024 0 0 1 55.8592-13.312 109.4656 109.4656 0 0 1 53.248 11.1616 34.8672 34.8672 0 0 1 19.7632 30.72 43.4688 43.4688 0 0 1-28.7744 38.6048 563.2 563.2 0 0 1-59.6992 20.48 500.6848 500.6848 0 0 0-70.4512 25.6 67.7888 67.7888 0 0 0-35.2256 61.8496 72.704 72.704 0 0 0 34.3552 64 165.7344 165.7344 0 0 0 166.2464 0 98.2016 98.2016 0 0 0 36.9664-74.2912h-49.8688a66.8672 66.8672 0 0 1-23.6544 40.96 83.3024 83.3024 0 0 1-50.688 12.4416 94.464 94.464 0 0 1-44.2368-8.1408 32.8192 32.8192 0 0 1-18.8928-31.7952 34.8672 34.8672 0 0 1 21.4528-31.3856 438.3744 438.3744 0 0 1 52.4288-18.8928 480.0512 480.0512 0 0 0 80.3328-30.0544 73.5744 73.5744 0 0 0 39.936-66.1504 76.8 76.8 0 0 0-32.256-65.28 188.3648 188.3648 0 0 0-179.5584-1.6896z m392.7552-21.248h-115.6608V537.6h118.6304c103.7824-1.1776 156.2624-54.8864 157.3888-160.4096 2.9184-106.24-47.36-159.3344-151.7568-159.3344z m-63.232 43.5712h63.232c72.1408-1.1776 107.52 36.9664 106.7008 114.4832-1.1776 74.5472-36.352 112.64-104.9088 113.92h-65.024zM51.2 691.2v-629.0432h921.6V691.2H51.2M46.5408 742.4h930.9184a43.8784 43.8784 0 0 0 46.5408-40.6528v-650.24a43.8784 43.8784 0 0 0-46.5408-40.6528H46.5408A43.8784 43.8784 0 0 0 0 51.6096V701.7472A43.8784 43.8784 0 0 0 46.5408 742.4z"  horiz-adv-x="1024" />
      
      <glyph glyph-name="voice" unicode="&#59007;" d="M494.7456 819.2a25.6 25.6 0 0 0 25.6-25.6v-798.3616a25.6 25.6 0 0 0-25.6-25.6 302.4896 302.4896 0 0 0-212.0704 109.568A628.0704 628.0704 0 0 0 209.92 172.79999999999995H95.5392A70.0416 70.0416 0 0 0 25.6 242.73919999999998v306.688A70.0416 70.0416 0 0 0 95.5392 619.52H209.92c29.6448 46.08 139.008 199.68 284.8256 199.68z m-25.6-796.2624V765.9008c-126.0544-20.48-221.7984-183.1936-222.8224-184.9856a25.6 25.6 0 0 0-22.1696-12.8H95.5392a18.7904 18.7904 0 0 1-18.7392-18.7392v-306.688a18.7904 18.7904 0 0 1 18.7392-18.7392h128.6144a25.6 25.6 0 0 0 22.272-12.9536c0.9728-1.7408 96.6144-167.3216 222.72-188.0576zM672.1536 169.06240000000003a25.6 25.6 0 0 0-17.0496 44.6976 238.8992 238.8992 0 0 1 34.4576 38.2464 244.2752 244.2752 0 0 1-0.768 285.4912 238.8992 238.8992 0 0 1-33.7408 37.2224 25.6 25.6 0 0 0 34.0992 38.1952 293.632 293.632 0 0 0 0-437.4016 25.6 25.6 0 0 0-16.9984-6.4512zM721.7664-12.543999999999983a25.6 25.6 0 0 0-13.1584 47.5648 417.9968 417.9968 0 0 1 5.6832 715.3152 25.6 25.6 0 0 0 26.9312 43.52 469.1968 469.1968 0 0 0-6.3488-802.3552 25.6 25.6 0 0 0-13.1072-4.0448z"  horiz-adv-x="1024" />
      
      <glyph glyph-name="capture" unicode="&#59008;" d="M699.904 620.9536H308.3776a25.6 25.6 0 0 0-22.8864 37.0688L350.72 788.5312a25.6 25.6 0 0 0 22.8864 14.1312h261.12a25.6 25.6 0 0 0 22.8864-14.1312l65.28-130.5088a25.6 25.6 0 0 0-22.8864-37.0688z m-350.1056 51.2h308.6848l-39.6288 79.3088h-229.376zM153.6 672.1536h701.1328a128 128 0 0 0 128-128v-422.3488a128 128 0 0 0-128-128H153.6a128 128 0 0 0-128 128V544.1536a128 128 0 0 0 128 128z m701.1328-627.1488a76.8 76.8 0 0 1 76.8 76.8V544.1536a76.8 76.8 0 0 1-76.8 76.8H153.6a76.8 76.8 0 0 1-76.8-76.8v-422.3488a76.8 76.8 0 0 1 76.8-76.8zM503.6032 137.06240000000003a199.68 199.68 0 1 0 199.68 199.68 199.68 199.68 0 0 0-199.68-199.68z m0 348.16a148.48 148.48 0 1 1 148.48-148.48 148.48 148.48 0 0 1-148.48 148.48z"  horiz-adv-x="1024" />
      
      <glyph glyph-name="Icon_LuPing" unicode="&#58985;" d="M50.2784 716.8h716.8a25.6 25.6 0 0 0 25.6-25.6v-614.4a25.6 25.6 0 0 0-25.6-25.6h-716.8a25.6 25.6 0 0 0-25.6 25.6V691.2a25.6 25.6 0 0 0 25.6 25.6z m691.2-51.2h-665.6v-563.2h665.6zM971.8784 640a25.6 25.6 0 0 0 25.6-25.6v-460.8a25.6 25.6 0 0 0-40.96-20.48l-204.8 155.5456a25.6 25.6 0 0 0-10.24 20.48V458.9056a25.6 25.6 0 0 0 10.24 20.48l204.8 155.4944a25.6 25.6 0 0 0 15.36 5.12z m-25.6-434.7904V562.7904l-153.6-116.6336v-124.3648zM358.4 241.92a25.6 25.6 0 0 0-16.384 45.2608L458.1888 384 342.016 480.8192a25.6 25.6 0 0 0 32.768 39.3216l139.776-116.48a25.6 25.6 0 0 0 0-39.3216l-139.776-116.48a25.6 25.6 0 0 0-16.384-5.9392z"  horiz-adv-x="1024" />
      
      <glyph glyph-name="Icon_HD" unicode="&#58986;" d="M413.4912 536.4224h54.272v-319.5904h-54.272v141.9264H257.28v-141.9264H204.8V536.4224h52.48v-131.1744h156.2112z m237.8752-318.3616H535.552V537.6512h118.6304c103.7312-1.1776 156.2112-54.8352 157.3888-160.4096 3.1744-109.1584-49.8688-162.2016-160.2048-159.232z m1.792 271.872h-64.9728v-228.352h63.1808c72.1408-1.1776 107.52 36.9664 106.7008 114.4832-1.1776 74.496-36.352 112.64-104.7552 113.8176zM51.2 691.2v-629.0432h921.6V691.2H51.2M46.5408 742.4h930.9184a43.8784 43.8784 0 0 0 46.5408-40.6528v-650.24a43.8784 43.8784 0 0 0-46.5408-40.6528H46.5408A43.8784 43.8784 0 0 0 0 51.6096V701.7472A43.8784 43.8784 0 0 0 46.5408 742.4z"  horiz-adv-x="1024" />
      
      <glyph glyph-name="Icon_Voice" unicode="&#58987;" d="M494.7456 819.2a25.6 25.6 0 0 0 25.6-25.6v-798.3616a25.6 25.6 0 0 0-25.6-25.6 302.4896 302.4896 0 0 0-212.0704 109.568A628.0704 628.0704 0 0 0 209.92 172.8H95.5392A70.0416 70.0416 0 0 0 25.6 242.7392v306.688A70.0416 70.0416 0 0 0 95.5392 619.52H209.92c29.6448 46.08 139.008 199.68 284.8256 199.68z m-25.6-796.2624V765.9008c-126.0544-20.48-221.7984-183.1936-222.8224-184.9856a25.6 25.6 0 0 0-22.1696-12.8H95.5392a18.7904 18.7904 0 0 1-18.7392-18.7392v-306.688a18.7904 18.7904 0 0 1 18.7392-18.7392h128.6144a25.6 25.6 0 0 0 22.272-12.9536c0.9728-1.7408 96.6144-167.3216 222.72-188.0576zM672.1536 169.0624a25.6 25.6 0 0 0-17.0496 44.6976 238.8992 238.8992 0 0 1 34.4576 38.2464 244.2752 244.2752 0 0 1-0.768 285.4912 238.8992 238.8992 0 0 1-33.7408 37.2224 25.6 25.6 0 0 0 34.0992 38.1952 293.632 293.632 0 0 0 0-437.4016 25.6 25.6 0 0 0-16.9984-6.4512zM721.7664-12.544a25.6 25.6 0 0 0-13.1584 47.5648 417.9968 417.9968 0 0 1 5.6832 715.3152 25.6 25.6 0 0 0 26.9312 43.52 469.1968 469.1968 0 0 0-6.3488-802.3552 25.6 25.6 0 0 0-13.1072-4.0448z"  horiz-adv-x="1024" />
      
      <glyph glyph-name="Icon_ScreenShot" unicode="&#58989;" d="M699.904 620.9536H308.3776a25.6 25.6 0 0 0-22.8864 37.0688L350.72 788.5312a25.6 25.6 0 0 0 22.8864 14.1312h261.12a25.6 25.6 0 0 0 22.8864-14.1312l65.28-130.5088a25.6 25.6 0 0 0-22.8864-37.0688z m-350.1056 51.2h308.6848l-39.6288 79.3088h-229.376zM153.6 672.1536h701.1328a128 128 0 0 0 128-128v-422.3488a128 128 0 0 0-128-128H153.6a128 128 0 0 0-128 128V544.1536a128 128 0 0 0 128 128z m701.1328-627.1488a76.8 76.8 0 0 1 76.8 76.8V544.1536a76.8 76.8 0 0 1-76.8 76.8H153.6a76.8 76.8 0 0 1-76.8-76.8v-422.3488a76.8 76.8 0 0 1 76.8-76.8zM503.6032 137.0624a199.68 199.68 0 1 0 199.68 199.68 199.68 199.68 0 0 0-199.68-199.68z m0 348.16a148.48 148.48 0 1 1 148.48-148.48 148.48 148.48 0 0 1-148.48 148.48z"  horiz-adv-x="1024" />
      
      <glyph glyph-name="Icon_SD" unicode="&#58990;" d="M258.6624 239.2576a104.5504 104.5504 0 0 0-42.0864 85.504h49.8176a72.2432 72.2432 0 0 1 24.9344-49.8688 96.1024 96.1024 0 0 1 55.8592-13.312 109.4656 109.4656 0 0 1 53.248 11.1616 34.8672 34.8672 0 0 1 19.7632 30.72 43.4688 43.4688 0 0 1-28.7744 38.6048 563.2 563.2 0 0 1-59.6992 20.48 500.6848 500.6848 0 0 0-70.4512 25.6 67.7888 67.7888 0 0 0-35.2256 61.8496 72.704 72.704 0 0 0 34.3552 64 165.7344 165.7344 0 0 0 166.2464 0 98.2016 98.2016 0 0 0 36.9664-74.2912h-49.8688a66.8672 66.8672 0 0 1-23.6544 40.96 83.3024 83.3024 0 0 1-50.688 12.4416 94.464 94.464 0 0 1-44.2368-8.1408 32.8192 32.8192 0 0 1-18.8928-31.7952 34.8672 34.8672 0 0 1 21.4528-31.3856 438.3744 438.3744 0 0 1 52.4288-18.8928 480.0512 480.0512 0 0 0 80.3328-30.0544 73.5744 73.5744 0 0 0 39.936-66.1504 76.8 76.8 0 0 0-32.256-65.28 188.3648 188.3648 0 0 0-179.5584-1.6896z m392.7552-21.248h-115.6608V537.6h118.6304c103.7824-1.1776 156.2624-54.8864 157.3888-160.4096 2.9184-106.24-47.36-159.3344-151.7568-159.3344z m-63.232 43.5712h63.232c72.1408-1.1776 107.52 36.9664 106.7008 114.4832-1.1776 74.5472-36.352 112.64-104.9088 113.92h-65.024zM51.2 691.2v-629.0432h921.6V691.2H51.2M46.5408 742.4h930.9184a43.8784 43.8784 0 0 0 46.5408-40.6528v-650.24a43.8784 43.8784 0 0 0-46.5408-40.6528H46.5408A43.8784 43.8784 0 0 0 0 51.6096V701.7472A43.8784 43.8784 0 0 0 46.5408 742.4z"  horiz-adv-x="1024" />
      
      <glyph glyph-name="Icon_YunTai" unicode="&#58991;" d="M514.7136 490.7008a109.4144 109.4144 0 1 1 109.4144-109.4144 109.5168 109.5168 0 0 1-109.4144 109.4144m0 51.2a160.6144 160.6144 0 1 0-160.6144-160.6144 160.6144 160.6144 0 0 0 160.6144 160.6144zM804.9664 182.5792a25.6 25.6 0 0 0-18.1248 43.7248l160.4096 160.4608-160.4096 160.4096a25.6 25.6 0 0 0 36.1984 36.1984l178.5344-178.5344a25.6 25.6 0 0 0 0-36.1984l-178.5344-178.5344a25.6 25.6 0 0 0-18.0736-7.5264zM310.5792 91.0336a25.6 25.6 0 0 0 7.4752 18.1248 25.6 25.6 0 0 0 36.1984 0l160.4608-160.4608 160.4096 160.4608a25.6 25.6 0 0 0 36.1984 0 25.6 25.6 0 0 0 0-36.1984l-178.4832-178.5856a25.6 25.6 0 0 0-36.1984 0l-178.5856 178.5344a25.6 25.6 0 0 0-7.4752 18.1248zM219.0336 177.152a25.6 25.6 0 0 0-18.1248 7.4752L22.3744 363.1616a25.6 25.6 0 0 0 0 36.1984l178.5344 178.5344a25.6 25.6 0 1 0 36.1984-36.1984l-160.4096-160.4096 160.4096-160.4608a25.6 25.6 0 0 0-18.1248-43.7248zM305.152 676.9664a25.6 25.6 0 0 0 7.4752 18.1248L491.1616 873.6256a25.6 25.6 0 0 0 36.1984 0l178.5856-178.5344a25.6 25.6 0 0 0 0-36.1984 25.6 25.6 0 0 0-36.1984 0L509.2864 819.3024 348.8768 658.8416a25.6 25.6 0 0 0-43.7248 18.1248z"  horiz-adv-x="1024" />
      
      <glyph glyph-name="Icon_WangYeQuanPing" unicode="&#58992;" d="M326.6048-53.8624H94.8224a74.752 74.752 0 0 0-71.936 77.3632V744.5504a74.752 74.752 0 0 0 71.936 77.1072h834.304a74.752 74.752 0 0 0 71.936-77.1072v-154.5216a25.6 25.6 0 1 0-51.2 0V744.5504a24.064 24.064 0 0 1-20.736 25.9072H94.8224a24.064 24.064 0 0 1-20.736-25.9072v-721.0496a24.064 24.064 0 0 1 20.736-25.9072h231.7824a25.6 25.6 0 0 0 0-51.2zM583.7824 409.6h309.6576a76.8 76.8 0 0 0 76.8-76.8v-309.6576a76.8 76.8 0 0 0-76.8-76.8h-309.6576a76.8 76.8 0 0 0-76.8 76.8V332.8a76.8 76.8 0 0 0 76.8 76.8z m309.6576-412.0576a25.6 25.6 0 0 1 25.6 25.6V332.8a25.6 25.6 0 0 1-25.6 25.6h-309.6576a25.6 25.6 0 0 1-25.6-25.6v-309.6576a25.6 25.6 0 0 1 25.6-25.6z"  horiz-adv-x="1024" />
      
      <glyph glyph-name="clarity" unicode="&#59009;" d="M413.4912 536.4223999999999h54.272v-319.5904h-54.272v141.9264H257.28v-141.9264H204.8V536.4223999999999h52.48v-131.1744h156.2112z m237.8752-318.3616H535.552V537.6512h118.6304c103.7312-1.1776 156.2112-54.8352 157.3888-160.4096 3.1744-109.1584-49.8688-162.2016-160.2048-159.232z m1.792 271.872h-64.9728v-228.352h63.1808c72.1408-1.1776 107.52 36.9664 106.7008 114.4832-1.1776 74.496-36.352 112.64-104.7552 113.8176zM51.2 691.2v-629.0432h921.6V691.2H51.2M46.5408 742.4h930.9184a43.8784 43.8784 0 0 0 46.5408-40.6528v-650.24a43.8784 43.8784 0 0 0-46.5408-40.6528H46.5408A43.8784 43.8784 0 0 0 0 51.6096V701.7472A43.8784 43.8784 0 0 0 46.5408 742.4z"  horiz-adv-x="1024" />
      
      <glyph glyph-name="WangYeQuanPing" unicode="&#59011;" d="M326.6048-53.86239999999998H94.8224a74.752 74.752 0 0 0-71.936 77.3632V744.5504a74.752 74.752 0 0 0 71.936 77.1072h834.304a74.752 74.752 0 0 0 71.936-77.1072v-154.5216a25.6 25.6 0 1 0-51.2 0V744.5504a24.064 24.064 0 0 1-20.736 25.9072H94.8224a24.064 24.064 0 0 1-20.736-25.9072v-721.0496a24.064 24.064 0 0 1 20.736-25.9072h231.7824a25.6 25.6 0 0 0 0-51.2zM583.7824 409.6h309.6576a76.8 76.8 0 0 0 76.8-76.8v-309.6576a76.8 76.8 0 0 0-76.8-76.8h-309.6576a76.8 76.8 0 0 0-76.8 76.8V332.79999999999995a76.8 76.8 0 0 0 76.8 76.8z m309.6576-412.0576a25.6 25.6 0 0 1 25.6 25.6V332.79999999999995a25.6 25.6 0 0 1-25.6 25.6h-309.6576a25.6 25.6 0 0 1-25.6-25.6v-309.6576a25.6 25.6 0 0 1 25.6-25.6z"  horiz-adv-x="1024" />
      
      <glyph glyph-name="Icon_Play" unicode="&#58983;" d="M859.2896 384a75.3664 75.3664 0 0 1-35.84 65.1264L373.504 730.1632A76.8 76.8 0 0 1 256 665.0368v-562.0736a76.8 76.8 0 0 1 117.76-65.1264l449.4336 281.0368A75.3664 75.3664 0 0 1 859.2896 384m51.2 0a126.9248 126.9248 0 0 0-60.16-108.544l-449.6896-281.0368A128 128 0 0 0 204.8 102.9632V665.0368a128 128 0 0 0 195.84 108.544l449.6896-281.0368A126.9248 126.9248 0 0 0 910.4896 384z"  horiz-adv-x="1024" />
      
      <glyph glyph-name="Icon_Stop" unicode="&#58984;" d="M307.2 0a25.6 25.6 0 0 0-25.6 25.6V742.4a25.6 25.6 0 0 0 51.2 0v-716.8a25.6 25.6 0 0 0-25.6-25.6zM716.8 0a25.6 25.6 0 0 0-25.6 25.6V742.4a25.6 25.6 0 0 0 51.2 0v-716.8a25.6 25.6 0 0 0-25.6-25.6z"  horiz-adv-x="1024" />
      
      <glyph glyph-name="play_1" unicode="&#59002;" d="M307.2 0a25.6 25.6 0 0 0-25.6 25.6V742.4a25.6 25.6 0 0 0 51.2 0v-716.8a25.6 25.6 0 0 0-25.6-25.6zM716.8 0a25.6 25.6 0 0 0-25.6 25.6V742.4a25.6 25.6 0 0 0 51.2 0v-716.8a25.6 25.6 0 0 0-25.6-25.6z"  horiz-adv-x="1024" />
      
      <glyph glyph-name="play" unicode="&#59003;" d="M859.2896 384a75.3664 75.3664 0 0 1-35.84 65.1264L373.504 730.1632A76.8 76.8 0 0 1 256 665.0368v-562.0736a76.8 76.8 0 0 1 117.76-65.1264l449.4336 281.0368A75.3664 75.3664 0 0 1 859.2896 384m51.2 0a126.9248 126.9248 0 0 0-60.16-108.544l-449.6896-281.0368A128 128 0 0 0 204.8 102.96320000000003V665.0368a128 128 0 0 0 195.84 108.544l449.6896-281.0368A126.9248 126.9248 0 0 0 910.4896 384z"  horiz-adv-x="1024" />
      
      <glyph glyph-name="Icon_SDcard" unicode="&#58981;" d="M845.376-75.392H169.088a32 32 0 0 0-32 32V633.088a32 32 0 0 0 6.4 19.2l126.784 169.088a32.32 32.32 0 0 0 25.6 12.8h549.504a32 32 0 0 0 32-32v-845.376a32 32 0 0 0-32-32.192zM316.992 601.472a32 32 0 0 1-32-32v-126.784a32 32 0 0 1 32-32 32 32 0 0 1 32 32V569.472a32 32 0 0 1-31.936 32z m380.416 63.424a32 32 0 0 1-32-32v-126.784a32 32 0 0 1 32-32 32 32 0 0 1 32 32V633.088a32 32 0 0 1-32 32z m-126.784 0a32 32 0 0 1-32-32v-126.784a32 32 0 0 1 32-32 32 32 0 0 1 32 32V633.088a32 32 0 0 1-32 32z m-126.848 0a32 32 0 0 1-32-32v-126.784a32 32 0 0 1 32-32 32 32 0 0 1 32 32V633.088a32 32 0 0 1-31.936 32z"  horiz-adv-x="1024" />
      
      <glyph glyph-name="Icon_Cloud" unicode="&#58982;" d="M997.248 311.232a274.624 274.624 0 0 0-272.896-275.968H269.376A244.736 244.736 0 0 0 26.752 267.648a232.768 232.768 0 0 0 151.616 211.904 60.608 60.608 0 0 1 36.224 43.904 270.08 270.08 0 0 0 267.072 209.408 275.2 275.2 0 0 0 230.784-122.304 60.672 60.672 0 0 1 41.92-26.752 279.872 279.872 0 0 0 242.88-272.576z"  horiz-adv-x="1024" />
      
      <glyph glyph-name="Icon_Left" unicode="&#58979;" d="M227.968 304a102.4 102.4 0 0 0 0 159.872L601.6 762.88a102.4 102.4 0 0 0 166.4-80v-597.888a102.4 102.4 0 0 0-166.4-79.872z"  horiz-adv-x="1024" />
      
      <glyph glyph-name="Icon_Right" unicode="&#58980;" d="M796.032 464a102.4 102.4 0 0 0 0-159.872L422.4 5.12A102.4 102.4 0 0 0 256 85.12V683.008a102.4 102.4 0 0 0 166.4 79.872z"  horiz-adv-x="1024" />
      
      <glyph glyph-name="Console_icon_delete" unicode="&#58888;" d="M805.248 0.256L511.872 293.504 218.624 0.256a64 64 0 0 0-45.312-18.816A64 64 0 0 0 128 0.256a64 64 0 0 0 0 90.496L421.248 384 128 677.248a64 64 0 0 0 0 90.496 64 64 0 0 0 90.496 0l293.248-293.248L805.12 767.744a64 64 0 0 0 90.496 0 64 64 0 0 0 0-90.496L602.368 384l293.248-293.248a64 64 0 0 0 0-90.496 64 64 0 0 0-45.312-18.816 64 64 0 0 0-45.056 18.816z"  horiz-adv-x="1024" />
      
      <glyph glyph-name="Console_icon_calendar" unicode="&#58889;" d="M179.153455 1.815273a116.363636 116.363636 0 0 0-116.363637 116.363636V559.197091a116.363636 116.363636 0 0 0 116.363637 116.363636h91.648V732.578909a23.272727 23.272727 0 0 0 23.272727 23.272727 23.272727 23.272727 0 0 0 23.272727-23.272727v-56.878545h369.570909V732.578909a23.272727 23.272727 0 0 0 23.272727 23.272727 23.272727 23.272727 0 0 0 23.272728-23.272727v-56.878545h95.744a116.363636 116.363636 0 0 0 116.363636-116.363637v-441.157818a116.363636 116.363636 0 0 0-116.363636-116.363636z m-69.818182 557.335272v-440.971636a69.818182 69.818182 0 0 1 69.818182-69.818182h650.053818a69.818182 69.818182 0 0 1 69.818182 69.818182V559.197091a69.818182 69.818182 0 0 1-69.818182 69.818182h-95.744V565.992727a23.272727 23.272727 0 0 0-23.272728-23.272727 23.272727 23.272727 0 0 0-23.272727 23.272727V629.015273h-369.570909V565.992727a23.272727 23.272727 0 0 0-23.272727-23.272727 23.272727 23.272727 0 0 0-23.272727 23.272727V629.015273H179.153455a69.818182 69.818182 0 0 1-69.818182-69.678546z m184.785454-370.129454a23.272727 23.272727 0 0 0-23.272727 23.272727 23.272727 23.272727 0 0 0 23.272727 23.272727h416.116364a23.272727 23.272727 0 0 0 23.272727-23.272727 23.272727 23.272727 0 0 0-23.272727-23.272727z m0 166.446545a23.272727 23.272727 0 0 0-23.272727 23.272728 23.272727 23.272727 0 0 0 23.272727 23.272727h228.864a23.272727 23.272727 0 0 0 23.272728-23.272727 23.272727 23.272727 0 0 0-23.272728-23.272728z"  horiz-adv-x="1024" />
      
      <glyph glyph-name="code_icon_copy" unicode="&#58892;" d="M136.192-91.428571A99.766857 99.766857 0 0 0 36.571429 8.192V574.171429a99.693714 99.693714 0 0 0 99.620571 99.620571h86.089143V759.881143A99.766857 99.766857 0 0 0 321.828571 859.428571h565.906286A99.766857 99.766857 0 0 0 987.428571 759.808V193.828571a99.693714 99.693714 0 0 0-99.620571-99.620571h-86.089143v-86.089143A99.766857 99.766857 0 0 0 702.171429-91.428571z m-30.939429 665.6v-565.906286a31.012571 31.012571 0 0 1 30.939429-31.012572H702.171429a31.012571 31.012571 0 0 1 31.012571 31.012572V574.171429a31.012571 31.012571 0 0 1-31.012571 30.939428H136.265143a31.012571 31.012571 0 0 1-31.012572-30.939428z m782.628572-411.136a31.012571 31.012571 0 0 1 30.939428 30.939428V759.881143a31.012571 31.012571 0 0 1-30.939428 31.012571H321.828571a31.012571 31.012571 0 0 1-31.012571-31.012571v-86.089143H702.171429A99.766857 99.766857 0 0 0 801.792 574.171429v-411.136z"  horiz-adv-x="1024" />
      
    </font>
</defs>
</svg>
